Info




Budget: 17000000$

Incassi: 46357676$

Stato: Released

Tagline: « Una pagina epica della guerra del Vietnam. »

Cast:




Un gruppo di giovani marines appena reclutati e duramente addestrati dal sergente Hartman con metodi brutali, parte per il Vietnam, dove sperimenta gli orrori della guerra nella battaglia intorno alla città di Hue. Una cruda denuncia della follia e della presunzione umana – tema dominante in Kubrick, sia che essa si eserciti nello spazio o sulla Terra – resa efficace dal realismo della scenografia (l’inquietante geometria della caserma e l’apocalittico teatro della battaglia) e dalla nitida fotografia.

Trailer


Upload on Youtube

Info File

Unique ID : 183123866841161447433917866375498203609 (0x89C45FB5D27EFFC9B97ECB2BC15C81D9)
Complete name : C:\Users\Administrator\Downloads\FullMetalJacket\Full Metal Jacket (1987) BDRip 720p HEVC ITA ENG AC3 ITA ENG Sub PirateMKV.mkv
Format : Matroska
Format version : Version 4 / Version 2
File size : 4.34 GiB
Duration : 1h 56mn
Overall bit rate : 5 331 Kbps
Movie name : Full Metal Jacket (1987) - PirateMKV
Encoded date : UTC 2016-06-15 15:13:24
Writing application : mkvmerge v9.1.0 ('Little Earthquakes') 64bit
Writing library : libebml v1.3.3 libmatroska v1.4.4 / Lavf57.37.101
Copyright : Encoded by PirateMKV
Comment : Original PirateMKV Release - Sharing is NOT allowed. PirateHEVC NON è PirateMKV ma solo un reupper. Se volete supportare il mio lavoro scaricate solo da post caricati da PirateMKV. Grazie.
AUTHOR : PirateMKV

Video
ID : 1
Format : HEVC
Format/Info : High Efficiency Video Coding
Format profile : [email protected]@High
Codec ID : V_MPEGH/ISO/HEVC
Duration : 1h 56mn
Bit rate : 4 433 Kbps
Width : 1 280 pixels
Height : 720 pixels
Display aspect ratio : 16:9
Frame rate mode : Constant
Frame rate : 23.976 (24000/1001) fps
Color space : YUV
Chroma subsampling : 4:2:0
Bit depth : 8 bits
Bits/(Pixel*Frame) : 0.201
Stream size : 3.61 GiB (83%)
Writing library : x265 1.9 206-0af296185f7a:[Windows][GCC 5.3.0][64 bit] 8bit
Encoding settings : wpp / ctu=64 / min-cu-size=8 / max-tu-size=32 / tu-intra-depth=3 / tu-inter-depth=3 / me=2 / subme=4 / merange=57 / no-rect / no-amp / max-merge=3 / temporal-mvp / no-early-skip / no-recursion-skip / rdpenalty=0 / no-tskip / no-tskip-fast / strong-intra-smoothing / no-lossless / no-cu-lossless / no-constrained-intra / fast-intra / open-gop / no-temporal-layers / interlace=0 / keyint=250 / min-keyint=23 / scenecut=40 / rc-lookahead=40 / lookahead-slices=0 / bframes=8 / bframe-bias=0 / b-adapt=2 / ref=5 / limit-refs=3 / limit-modes / weightp / weightb / aq-mode=3 / qg-size=32 / aq-strength=2.00 / cbqpoffs=0 / crqpoffs=0 / rd=4 / psy-rd=1.00 / rdoq-level=0 / psy-rdoq=0.00 / no-rd-refine / signhide / deblock=-1:-1 / sao / no-sao-non-deblock / b-pyramid / no-cutree / no-intra-refresh / rc=crf / crf=21.5 / qcomp=0.60 / qpmin=0 / qpmax=51 / qpstep=4 / vbv-maxrate=30000 / vbv-bufsize=30000 / crf-max=0.0 / ipratio=1.40 / pbratio=1.30
Language : English
Default : Yes
Forced : No
Color range : Limited
Matrix coefficients : BT.709

Audio #1
ID : 2
Format : AC-3
Format/Info : Audio Coding 3
Mode extension : CM (complete main)
Format settings, Endianness : Big
Codec ID : A_AC3
Duration : 1h 56mn
Bit rate mode : Constant
Bit rate : 448 Kbps
Channel(s) : 6 channels
Channel positions : Front: L C R, Side: L R, LFE
Sampling rate : 48.0 KHz
Frame rate : 31.250 fps (1536 spf)
Compression mode : Lossy
Delay relative to video : -42ms
Stream size : 373 MiB (8%)
Title : AC3 5.1
Language : Italian
Default : Yes
Forced : No

Audio #2
ID : 3
Format : AC-3
Format/Info : Audio Coding 3
Mode extension : CM (complete main)
Format settings, Endianness : Big
Codec ID : A_AC3
Duration : 1h 56mn
Bit rate mode : Constant
Bit rate : 448 Kbps
Channel(s) : 6 channels
Channel positions : Front: L C R, Side: L R, LFE
Sampling rate : 48.0 KHz
Frame rate : 31.250 fps (1536 spf)
Compression mode : Lossy
Delay relative to video : -42ms
Stream size : 373 MiB (8%)
Title : AC3 5.1
Language : English
Default : No
Forced : No

Text #1
ID : 4
Format : UTF-8
Codec ID : S_TEXT/UTF8
Codec ID/Info : UTF-8 Plain Text
Duration : 1h 54mn
Bit rate : 51 bps
Count of elements : 1391
Stream size : 43.7 KiB (0%)
Title : Normal
Language : Italian
Default : No
Forced : N

Trackers

http://tracker.istole.it:80/
http://tracker.publicbt.com:80/
http://tracker.tntvillage.scambioetico.org:2710/scrape
http://open.demonii.com:1337/scrape
http://tracker.coppersurfer.tk:6969/scrape
http://tracker.openbittorrent.com/scrape

Torrent correlati

Torrent Name Dimm. Creato Seed Leech
5.94 Gb 2 anni fa 0 0
5.71 Gb 2 anni fa 0 1
1.37 Gb 2 anni fa 2 0
1.37 Gb 2 anni fa 6 0
232.85 Mb 2 anni fa 2 0