Info

We Bought a Zoo


7.1
IMDB: 7.1/10 114,189 votes

Durata: 124 min

Released:

Anno: 23 Dec 2011

Direttore:

Premi: 1 win & 8 nominations.

Budget: 50000000$

Incassi: 120081841$

Stato: Released

Paese: USA

Cast:




Sconvolto dalla morte della moglie, Benjamin Mee decide di rivoluzionare la propria vita e quella dei figli, lasciando il (redditizio) lavoro di reporter e decidendo di cambiare casa. Ma c’è un problema: la casa “ideale” che lui sceglie si trova in un vecchio e decrepito zoo, completo di 200 animali esotici e “lontano 9 miglia dal negozio di alimentari più vicino”. La casa, per contratto, può essere acquistata solo da un acquirente che prometta di mantenere attivo lo zoo……..

Trailer


Upload on Youtube

Info File

Video
ID : 0
Format : MPEG-4 Visual
Format profile : [email protected]
Format settings, BVOP : No
Format settings, QPel : No
Format settings, GMC : No warppoints
Format settings, Matrix : Default (H.263)
Codec ID : XVID
Codec ID/Hint : XviD
Duration : 2h 3mn
Bit rate : 1 498 Kbps
Width : 718 pixels
Height : 400 pixels
Display aspect ratio : 16:9
Frame rate : 23.976 fps
Color space : YUV
Chroma subsampling : 4:2:0
Bit depth : 8 bits
Scan type : Progressive
Compression mode : Lossy
Bits/(Pixel*Frame) : 0.218
Stream size : 1.30 GiB (62%)
Title : We Bought a Zoo (Crowe, 2011) [BDRip720p Ita-Eng] by [email protected]
Writing library : XviD 64

Audio #1
ID : 1
Format : AC-3
Format/Info : Audio Coding 3
Mode extension : CM (complete main)
Codec ID : 2000
Duration : 2h 3mn
Bit rate mode : Constant
Bit rate : 448 Kbps
Channel(s) : 6 channels
Channel positions : Front: L C R, Side: L R, LFE
Sampling rate : 48.0 KHz
Bit depth : 16 bits
Compression mode : Lossy
Stream size : 397 MiB (19%)
Alignment : Split accross interleaves
Interleave, duration : 42 ms (1.00 video frame)
Interleave, preload duration : 500 ms

Trackers

http://tracker.istole.it:80/
http://tracker.publicbt.com:80/
http://tracker.tntvillage.scambioetico.org:2710/scrape
http://open.demonii.com:1337/scrape
http://tracker.coppersurfer.tk:6969/scrape
http://tracker.openbittorrent.com/scrape